Supergirl.S02E16.HDTV.x264-MVGEE

seeders: 3
leechers: 3
updated:
Added by onlyoneclick in TV



Supergirl.S02E16.HDTV.x264-MVGEE Size: 240.08 MB (251742126 Bytes)

Description

Supergirl.S02E16.HDTV.x264-MVGEE
 
http://www.imdb.com/title/tt4016454/

A diverse team of scientists, soldiers and adventurers unite to explore a mythical, uncharted island in the Pacific, as dangerous as it is beautiful. Cut off from everything they know, the team ventures into the domain of the mighty Kong, igniting the ultimate battle between man and nature. As their mission of discovery becomes one of survival, they must fight to escape a primal Eden in which humanity does not belong.

Year: 2015–
MPA Rating: TV-PG
Genres: Action, Adventure, Drama
Runtime: 43min
Rating: 606
Creators: Ali Adler, Greg Berlanti, Andrew Kreisberg
Stars: Melissa Benoist, Mehcad Brooks, Chyler Leigh

[img]https://i.imgur.com/6vHxNaJ.jpg[/img]

Duration: 00:42:29.31, start: -0.012333, bitrate: 789 kb/s
Stream #0:0(und): Video: h264 (Constrained Baseline) (avc1 / 0x31637661), yuv420p, 720x404 [SAR 1:1 DAR 180:101], 655 kb/s, 25 fps, 25 tbr, 12800 tbn, 50 tbc Stream #0:1(und): Audio: aac (LC) (mp4a / 0x6134706D), 48000 Hz, stereo, fltp, 129 kb/s




Sharing Widget


Download torrent
Size: 240.08 MB (251742126 Bytes)
seeders:3
leechers:3
Supergirl.S02E16.HDTV.x264-MVGEE



To share this torrent use the code below and insert it into comments, status messages, forum posts or your signature.

Torrent: Supergirl.S02E16.HDTV.x264-MVGEE

Trackers

tracker name
udp://tracker.leechers-paradise.org:6969
udp://zer0day.ch:1337
udp://open.demonii.com:1337
udp://tracker.coppersurfer.tk:6969
udp://exodus.desync.com:6969
µTorrent compatible trackers list

Locations

name
KickassTorrents
Torrent hash: 92BF1E621AE63FDF3A9B02EA99FF0DB020FA3C07

All Comments

audio
0/10
video
0/10
please, leave only comments related to that torrent
Sign In

Report a bug