Lion.2016.DVDScr.XVID.AC3.HQ.Hive-CM8

seeders: 664
leechers: 54
updated:
Added by SaM in Movies
Torrent reliable.
Torrent verified.



Lion.2016.DVDScr.XVID.AC3.HQ.Hive-CM8 Size: 1.84 GB (1975684956 Bytes)

Description

Lion.2016.DVDScr.XVID.AC3.HQ.Hive-CM8

Thx Hive

CM8 Doing It Right The First Time

Source: Screener Thanks m8

Notes:
Another Qualityrelease. what a great moving movie.

Encode:
Quality was good, fixed rgb and brightness.
removed all watermarks from video and audio, safety first.
and yes theire are english subs for foreign speaking parts.
enjoy


Video: 720x304 @bitrate 1600 2pass
Audio: English AC3 Stereo
Sample: yes included

PS: sw,passengers,rules dont apply,20th woman,paterson anyone?

 
http://www.imdb.com/title/tt3741834/


General
Complete name : Lion.2016.DVDScr.XVID.AC3.HQ.Hive-CM8.avi
Format : AVI
Format/Info : Audio Video Interleave
File size : 1.83 GiB
Duration : 1h 57mn
Overall bit rate : 2 221 Kbps
Writing application : Nandub v1.0rc2
Writing library : Nandub build 1853/release

Video
ID : 0
Format : MPEG-4 Visual
Format profile : Advanced [email protected]
Format settings, BVOP : 2
Format settings, QPel : Yes
Format settings, GMC : No warppoints
Format settings, Matrix : Default (H.263)
Muxing mode : Packed bitstream
Codec ID : XVID
Codec ID/Hint : XviD
Duration : 1h 57mn
Bit rate : 1 953 Kbps
Width : 720 pixels
Height : 304 pixels
Display aspect ratio : 2.35:1
Frame rate : 29.970 fps
Color space : YUV
Chroma subsampling : 4:2:0
Bit depth : 8 bits
Scan type : Progressive
Compression mode : Lossy
Bits/(Pixel*Frame) : 0.298
Stream size : 1.61 GiB (88%)
Writing library : XviD 1.2.1 (UTC 2008-12-04)

Audio
ID : 1
Format : AC-3
Format/Info : Audio Coding 3
Mode extension : CM (complete main)
Format settings, Endianness : Big
Codec ID : 2000
Duration : 1h 57mn
Bit rate mode : Constant
Bit rate : 256 Kbps
Channel(s) : 2 channels
Channel positions : Front: L R
Sampling rate : 48.0 KHz
Bit depth : 16 bits
Compression mode : Lossy
Delay relative to video : 6ms
Stream size : 216 MiB (12%)
Alignment : Split accross interleaves
Interleave, duration : 33 ms (1.00 video frame)
Interleave, preload duration : 500 ms


Screens
 
https://extraimage.net/image/2Iu2 
https://extraimage.net/image/2Iuw 
https://extraimage.net/image/2IuN 
https://extraimage.net/image/2IuT 
https://extraimage.net/image/2Iuj 
https://extraimage.net/image/2Iun




Sharing Widget


Download torrent
Size: 1.84 GB (1975684956 Bytes)
seeders:664
leechers:54
Lion.2016.DVDScr.XVID.AC3.HQ.Hive-CM8



To share this torrent use the code below and insert it into comments, status messages, forum posts or your signature.

Torrent: Lion.2016.DVDScr.XVID.AC3.HQ.Hive-CM8

Trackers

tracker name
udp://tracker.leechers-paradise.org:6969
udp://zer0day.ch:1337
udp://open.demonii.com:1337
udp://tracker.coppersurfer.tk:6969
udp://exodus.desync.com:6969
ยตTorrent compatible trackers list

Locations

name
KickassTorrents
Torrent hash: 2A31D18580852C9790C17609FEED83063EE2F388

All Comments

audio
0/10
video
0/10
please, leave only comments related to that torrent
Sign In

Report a bug