Begum Jaan 2017 Hindi 720p HDCam x264 Aac By Sam

seeders: 204
leechers: 7
updated:
Added by makintos13 in Movies
Torrent reliable.
Torrent verified.



Begum Jaan 2017 Hindi 720p HDCam x264 Aac By Sam Size: 795.99 MB (834656010 Bytes)

Description

screens:
 
https://imgmak.com/x7I
 
https://imgmak.com/x7q
 
https://imgmak.com/x7t
 
https://imgmak.com/x72
 
https://imgmak.com/x7F
 
https://imgmak.com/x7i
 
https://imgmak.com/x7j
 
https://imgmak.com/x7w

Video 
ID                          : 1 
Format                      : AVC 
Format/Info                 : Advanced Video Codec 
Format profile              : [email protected] 
Format settings, CABAC      : Yes 
Format settings, ReFrames   : 4 frames 
Codec ID                    : V_MPEG4/ISO/AVC 
Duration                    : 2 h 8 min 
Bit rate                    : 799 kb/s 
Width                       : 1 280 pixels 
Height                      : 544 pixels 
Display aspect ratio        : 2.35:1 
Frame rate mode             : Constant 
Frame rate                  : 29.970 (30000/1001) FPS 
Color space                 : YUV 
Chroma subsampling          : 4:2:0 
Bit depth                   : 8 bits 
Scan type                   : Progressive 
Bits/(Pixel*Frame)          : 0.038 
Stream size                 : 735 MiB (92%) 
Writing library             : x264 core 148 r2638 7599210 
Default                     : Yes 
Forced                      : No 

Audio 
ID                          : 2 
Format                      : AAC 
Format/Info                 : Advanced Audio Codec 
Format profile              : LC 
Codec ID                    : A_AAC 
Duration                    : 2 h 8 min 
Bit rate                    : 64.0 kb/s 
Channel(s)                  : 2 channels 
Channel positions           : Front: L R 
Sampling rate               : 48.0 kHz 
Frame rate                  : 46.875 FPS (1024 spf) 
Compression mode            : Lossy 
Stream size                 : 58.9 MiB (7%) 
Default                     : Ye




Sharing Widget


Download torrent
Size: 795.99 MB (834656010 Bytes)
seeders:204
leechers:7
Begum Jaan 2017 Hindi 720p HDCam x264 Aac By Sam



To share this torrent use the code below and insert it into comments, status messages, forum posts or your signature.

Torrent: Begum Jaan 2017 Hindi 720p HDCam x264 Aac By Sam

Trackers

tracker name
udp://tracker.leechers-paradise.org:6969
udp://zer0day.ch:1337
udp://open.demonii.com:1337
udp://tracker.coppersurfer.tk:6969
udp://exodus.desync.com:6969
ĀµTorrent compatible trackers list

Locations

name
KickassTorrents
Torrent hash: 256BE98D75D8E7CC1E546480F75771E44705A70C

All Comments

audio
0/10
video
0/10
please, leave only comments related to that torrent
Sign In

Report a bug